Freeleech Tracker

This trackers you must have for feeding your general stuff. This wikiHow teaches you how to find, download, and open torrent files on your computer. trackerstatus. "Edit: Update your DNS entries for tracker. Updated With private trackers trying to crack down on cheaters more than ever, Ratio Ghost is still actively updated with new features and detection avoidance schemes. cd and possibly restart your client so it announces to the right IP. Page 1 of 13 - The new idol tracker is going public - posted in Discussion Lounge: Dear friends and idol lovers, as promised a few weeks back we have been working on a new tracker especially dedicated to Japanese idols. Set to true if you only want to download freeleech releases. Typically a torrent must be seeded until a 1:1 ratio or a specific amount of time anywhere from 48 hours to 1 week in a 2-4 week period. All torrents 500 MB or more in content size are free to download because we are in freeleech. ekSu ;ud fïflka lshkafk a ¡. Signing up for an account is. WINTERHASCOME invitation code! Except if you are living in Mars you should know that in less than 48h, GOTs final season is finally here! To celebrate this, we are opening invites JUST FOR 36 HOURS from now!. As many trackers, upload just for power users and above. The minimum ratio you are allowed to have is 1. I miss my brother. - Maybe the best HD tracker in the torrenting world - It's rare that you will find invites for HDB, these guys keep a very low profile - Browse audiobooks, documentaries, demos, movies, music, sports, TV and XXX. Si vous deviez n'en avoir qu'un seul ce ne serait surement. Services Amazon / Apple Refund Service. Ocorreu um erro! Não tens permissão para ver esta página ou executar essa ação. For every uploaded torrent that gets approved, you will receive 50 seedbonus points. Store Premium Membership Torrent Invites Store Buffered Accounts Store FTP Membership Windows Product Key Store Customer Support More. cd Freeleech ( What. This application is simple to use, includes a whole range of features and all of this for free. - Maybe the best HD tracker in the torrenting world - It's rare that you will find invites for HDB, these guys keep a very low profile - Browse audiobooks, documentaries, demos, movies, music, sports, TV and XXX. The community is very active and helpful. Nom du tracker : GKS. i dont know if i did something wrong or. Freeleech torrentleech. com/q6qCrR - Le site YGGTorrent : http://clkmein. With private trackers trying to crack down on cheaters more than ever, Ratio Ghost is still actively updated with new. Listen to Freeleech på Pirategay on Spotify. If a user fails to meet one of those requirements then a Hit and Run is added to the users account. How to Seed a Torrent. Signing up for an account is. For PtP - well, sitewide FL is very very rare, but FL as a result of uploading. Ocorreu um erro! Não tens permissão para ver esta página ou executar essa ação. Extension Metadata. FreeLeech by Un Crevard. YggTorrent YGG Torrent est né des cendres de T411. Add server-password option to IRC header. Sharing files with bittorrent networking is a popular choice for peer to peer (P2P) sharing. It is designed to be used in physics education. Si vous deviez n'en avoir qu'un seul ce ne serait surement. Search in titles only Search in Tracker Freeleeches only. Several years on I have become much lazier and have decided on some torrents to set as freeleech …. com/q6qXKV - Ratio Master : http://clkmein. Nom du tracker : GKS. When in FreeLeech mode, your torrent client will continue to work as normal, but Ratio Ghost will report to the tracker that you haven't downloaded anything. ¡A por ellos!. com/q6qCrR - Le site YGGTorrent : http://clkmein. Most trackers still enforce seed time rules on freeleech torrents. We have decided to turn on Global Freeleech for a couple of days in order to promote the new bonus points system. Mobile Tracker Free is a mobile phone monitoring software that allows you to know in details what is happening on an Android mobile phone. Things you should know: We don't keep logs. Native HEVC 10-bit Rec. En estas fiestas, el Staff de PuntoTorrent ha decidido poner todos los torrents con GOLDEN (sólo cuenta la subida, no la bajada), por tanto tendremos una muy buena oportunidad de aumentar nuestro ratio. Can be global, personal or specific to some torrents. Post any freeleech related tracker news here!. Open Trackers; Torrent Invites; Torrent Freak; Tracker Statuses; Tracker Platforms; Hey There! Like what you see? Feel free to contribute HERE! Name Abbr Type Codebase Moz Grade Users Torrents Peers Ratio Ratio Diff Freeleech Points H&R B-Day Join Join Diff Updated; Trackers from Jackett that have not yet. 2020 Fully Compliant HDR Transfers. Search in titles only Search in Tracker Freeleeches only. The nature, incidence and targets of freeleech are entirely decided by the staff but usually occur for special occasions (Christmas, tracker anniversary, etc. Hors ligne #7 25/12/2015 01:10:07. 21:50 -kor. If you want freeleech status you would need to pay an additional 25USD/month or 40 USD for two months. What comes is always here now. If a user fails to meet one of those requirements then a Hit and Run is added to the users account. com/q6qCrR - Le site YGGTorrent : http://clkmein. Nu e specific fiecarui tracker, ci e adaptat in functie de dorintele fiecarui sysop. Yes, but you may not seed the same torrent from two different computers/IPs as the tracker will not understand how you can be in two places at once, and doing so may cause problems. cd come to freeleech post on this page to tell it to most of people as possible. Tracker Index Our Picks Leaderboard Donations Awards Online Users More. It does depend tracker by tracker, but in general, I'd download big things and seed them long-term because a) they will give a lot of credit in the long run and b) people do the same for ratio during the freeleech. Sharing files with bittorrent networking is a popular choice for peer to peer (P2P) sharing. Thats all and Lookimg was used, too. La disparition de ce dernier a en effet laissé un véritable gouffre sur la scène warez francophone et plusieurs passionnés ont donc eu l’idée de monter un nouveau site et un nouveau tracker afin de prendre sa place. If a user fails to meet one of those requirements then a Hit and Run is added to the users account. A torrent is a simple file that contains information needed to access and download larger, more complex files. its a huge ISO because theres akot of hacking/penetration tools included in windows 10. Tracker video modeling is a powerful way to combine videos with computer modeling. Freeleech can be applied to individual torrents at a trackers own discretion, sometimes for really big torrents, internal encodes, torrents that are underseeded, and sometimes there are freeleech. Post any freeleech related tracker news here!. When a user downloads that torrent from you, you will get upload credit. wav" WAVE INDEX 01 00:00:00 TRACK 04 AUDIO TITLE "Too Long" INDEX 00 02:10:04 FILE "04 - Too Long. The post will be published to twitter automaticly :. The site is FREELEECH, this means ALL SECTIONS, ALL RELEASES and NO ratio requirements, the only thing you have to remember is to seed the files! SIGNUPS ARE OPEN FOR A LIMITED TIME ONLY. A nice feature is the absence of rating, the resource is freeleech and using only taken into account the number of uploaded material. Раздач: 1,118, Общий размер: 31,136 TB Пиров: 33,856, Сидов: 18,179, Личеров: 15,677 Скорость обмена: 0 B/s. Several years on I have become much lazier and have decided on some torrents to set as freeleech …. Neutral leech means none of the data uploaded or downloaded is counted, while freeleech means only your uploaded data is recorded in your ratio. Post any freeleech related tracker news here!. It does depend tracker by tracker, but in general, I'd download big things and seed them long-term because a) they will give a lot of credit in the long run and b) people do the same for ratio during the freeleech. - Tracker's internal encoder releases (Hon3yHD) are set to freeleech. It is a way to build up your ratio at the site. On the site, there are mainly music types such as FLAC but there are also some Blu-ray and DVD selections available for types of videos like concerts. -----Ratio Help. com freeleech small pack 5 5 years. network/ Official IRC Support Channel #help @ orpheus. 14 Users No Reviews. It's important to note that freeleech. cd and possibly restart your client so it announces to the right IP. Typically a torrent must be seeded until a 1:1 ratio or a specific amount of time anywhere from 48 hours to 1 week in a 2-4 week period. 🎅🎄 HDBits, Empornium, MoreThan. SFC is the oldest and credible source for the all your loving ,desiring trackers accounts ,offering you in a reasonable and affordable price,after getting your favorite trackers account ,do leave your feedback and suggestions for any tracker of your desire. cd team has finally made a semi-public release of the Gazelle tracker and site software, by doing its first large scale roll-out on its own site. See full list on physlets. Thats all and Lookimg was used, too. cd come to freeleech post on this page to tell it to most of people as possible. Reply Anonymous Oct 21,2016 11:49 pm Just because you dont know how to use it doesnt mean its bad. 🥊 Ryan with a fan. 2020 Fully Compliant HDR Transfers. xParasiite Membre Inscription : 23/12/2012 Messages : 628. En estas fiestas, el Staff de PuntoTorrent ha decidido poner todos los torrents con GOLDEN (sólo cuenta la subida, no la bajada), por tanto tendremos una muy buena oportunidad de aumentar nuestro ratio. Internet Protocol addresses are not recorded in any way. Also users may gift you seedbonus points if they like your torrent. For every uploaded torrent that gets approved, you will receive 50 seedbonus points. We have decided to turn on Global Freeleech for a couple of days in order to promote the new bonus points system. Mobile Tracker Free is a mobile phone monitoring software that allows you to know in details what is happening on an Android mobile phone. Partial Downloading — Now that you have a group of torrents neatly organized and waiting for your tracker’s freeleech, you can control other torrent options, such as setting up "partial seeding" for torrents that haven’t been downloaded yet. titngoan New Member. WINTERHASCOME invitation code! Except if you are living in Mars you should know that in less than 48h, GOTs final season is finally here! To celebrate this, we are opening invites JUST FOR 36 HOURS from now!. For PtP - well, sitewide FL is very very rare, but FL as a result of uploading. cd come to freeleech post on this page to tell it to most of people as possible. freeleech \ Prononciation ? \ masculin (Internet) Sur un tracker privé ou semi-privé, temps pendant lequel les données reçues par le client pair à pair ne sont pas comptabilisées. Freeleech tends to generate good will amongst the members and will greatly increase activiy, and hopefully as members get more buffer, the activity is sustained. Καλωσήρθατε στον μοναδικό tracker με ΟΛΑ τα torrent (60. Si vous deviez n'en avoir qu'un seul ce ne serait surement. Most trackers still enforce seed time rules on freeleech torrents So, if users don't seed it back. Change authkey to passkey in FunFile. Harry Potter en de steen der wijzen (2001) 152 min Adventure / Family / Fantasy Release: 22 Nov 2001 (Netherlands) Rating: 7. El tracker privado de Bittorrent, Tibimate, abre sus puertas a nuevos registros sin necesidad de pedir ninguna invitación. Nom du tracker : GKS. Open Trackers; Torrent Invites; Torrent Freak; Tracker Statuses; Tracker Platforms; Hey There! Like what you see? Feel free to contribute HERE! Name Abbr Type Codebase Moz Grade Users Torrents Peers Ratio Ratio Diff Freeleech Points H&R B-Day Join Join Diff Updated; Trackers from Jackett that have not yet. Step 1: Click here to open your account settings page. Maintaining ratio is easy due to the many freeleech torrents and many leecheers. Store Premium Membership Torrent Invites Store Buffered Accounts Store FTP Membership Windows Product Key Store Customer Support More. ¡Barra libre! / Freeleech torrents! Celebrando la llegada a España de Mark, anunciamos que los torrents de los conciertos españoles del KTGC Tour, hasta nuevo aviso, van a ser de "freeleech", o sea, las descargas no se contabilizan para el ratio, solo las subidas. use rufus and burn it with GPT. Proprietary High Dynamic Range Video Conversion. Upload torrents to our tracker. Yup, you read correct! If we look back for the past 15 years, we think the MOST ever requested feature on site was Freeleech. So snatch all the torrents you can in order to maximize your bonus point earnings now while they won’t hurt your ratio! The bonus points store is nearing completion with some nice things that you will be able to purchase. si ou yggtorrent. To be fair, it's more challenging and difficult than it sounds! Its not as simple as press a button to make everything Freeleech. Random IP addresses are inserted into the peer list. Typically on RED there are no freeleech events where many, or all, torrents are marked as such. These two attributes are included to allow a torrent tracker to specify the seeding requirements on a per torrent basis. the only problem is when the OS is starting for the first, when the screen says "gettting ready", it took almost an hour for it to actually log into the OS. MP3 320 Kbps: MEGA FLAC Versión: Distrito FreeLeech 2017 - MEGA y MEDIAFIRE Descargas. The tracker is not directly involved in the data transfer and does not have a copy of the file. Freeleech Don't Look Her In the Eye, released 18 July 2013 1. Tracker deny my torrent request on freeleech. Freeleech and Neutral Leech When creating torrents to upload to a private tracker, there is a box to “mark torrent as private”. Freeleech can be applied to individual torrents at a trackers own discretion, sometimes for really big torrents, internal encodes, torrents that are underseeded, and sometimes there are freeleech. - Maybe the best HD tracker in the torrenting world - It's rare that you will find invites for HDB, these guys keep a very low profile - Browse audiobooks, documentaries, demos, movies, music, sports, TV and XXX. WINTERHASCOME invitation code! Except if you are living in Mars you should know that in less than 48h, GOTs final season is finally here! To celebrate this, we are opening invites JUST FOR 36 HOURS from now!. If you love movies, getting an invite to the tracker PTP, you will find yourself in the world of cinema, where is collected and systematized the broadest collection of movies that will delight not just an ordinary film fans, but also fanatical film fans. i dont know if i did something wrong or. Freeleech Tracker. Register New Account | Recover Account | Recover Account. Several years on I have become much lazier and have decided on some torrents to set as freeleech …. Change authkey to passkey in FunFile. 6 months @ 55 USD or 12 months @ 80 USD. -----Ratio Help. Advanced Search. Also, leech is a carnivorous or bloodsucking aquatic worm. Freeleech and Neutral Leech When creating torrents to upload to a private tracker, there is a box to “mark torrent as private”. CNET Download provides free downloads for Windows, Mac, iOS and Android devices across all categories of software and apps, including security, utilities, games, video and browsers. For PtP - well, sitewide FL is very very rare, but FL as a result of uploading competitions is very common and is enough on its own. Users there got freeleech tokens , to be used on a specific of your choice to snatch it freely. 🎅🎄 HDBits, Empornium, MoreThan. The platform was founded in 2008 and it is still a considerably popular platform, all around the world. #1 Torrent Invite Forum on the Internet! Find free invites, free seedboxes, free bonuses, and you can even Buy/Sell your torrent invites or accounts. Tracker Index Our Picks Leaderboard Donations Awards Online Users More. /ptg/ - Private Tracker General - "/g/ - Technology" is 4chan's imageboard for discussing computer hardware and software, programming, and general technology. The nature, incidence and targets of freeleech are entirely decided by the staff but usually occur for special occasions (Christmas, tracker anniversary, etc. tv now available! Signup/Login and message Ethan regarding the invite! Buy, Trade, Sell Or Find Free Invites, For EVERY Private Tracker! HDBits, BTN, PTP, Bibliotik, TheVault, IPT, TL etc! 🎅🎄 ×. leechers-paradise. Tsugumomo Origin al Sound track. - Maybe the best HD tracker in the torrenting world - It's rare that you will find invites for HDB, these guys keep a very low profile - Browse audiobooks, documentaries, demos, movies, music, sports, TV and XXX. #1 Torrent Invite Forum on the Internet! Find free invites, free seedboxes, free bonuses, and you can even Buy/Sell your torrent invites or accounts. Random IP addresses are inserted into the peer list. Nathalia Santoro is a Brazilian fitness model, bodybuilder, BJJ competitor, and the girlfriend of well known Nogi grappling sensation Gordon Ryan. cd Tracker ). LosslessClub is a Ukrainian Music tracker platform for torrents. cd Freeleech ( What. An international team of scientists has discovered a new species of North American medicinal leech, and it turns out the creatures have been hiding in plain sight for decades. Time tracking software to help track time and easily manage timesheets and invoices. Pünkösd alkalmából az oldalon lesznek meglepetések, nem csak freeleech, de feltöltési akció is tervben van. Débloquer t411 - Programme Windows qui sert à débloquer le site t411 et YggTorrent, idéal dans le cas où votre FAI aurait bloqué le site t411. En este tracker podéis encontrar cualquier tipo de material, películas, música, juegos, programas etc. titngoan New Member. Freeleech What is Freeleech? [F] symbol is used to indicate that a torrent is subject to Freeleech. Also, leech is a carnivorous or bloodsucking aquatic worm. Under windows they are. How to Download and Open Torrent Files. Signing up for an account is. FreeLeech has started and will run until (12am midnight Eastern Time, August 17th, 2020). FreeLeech-fïflka lshkafka fgdrkaÜ tlla vjqkaf,daâ lrdg Ove rall ratio tlg tl. What is Tracker? Tracker is a free video analysis and modeling tool built on the Open Source Physics (OSP) Java framework. 6 / This is the tale of Harry Potter (Daniel Radcliffe), an ordinary eleven-year-old boy serving as a sort of slave for his aunt and uncle who learns that he is actually a wizard and has been invited to attend the Hogwarts School for Witchcraft and Wizardry. Freeleech strategy? : trackers. See full list on physlets. Only with Firefox—Get Firefox Now. Be careful of what you download or face the consequences. Changed¶ Change Blackcats to use passkey. eu/signup Et' pa bujrum, ko voli. If a user fails to meet one of those requirements then a Hit and Run is added to the users account. WINTERHASCOME invitation code! Except if you are living in Mars you should know that in less than 48h, GOTs final season is finally here! To celebrate this, we are opening invites JUST FOR 36 HOURS from now!. 🎅🎄 HDBits, Empornium, MoreThan. Lista trackere romanesti Free Cu Invitatii : RECOMANDARI : Cele mai tari site-uri de torrente Topul anului 2012 – 2013 CEI CARE DORESC INVITATII POT OBTINE DOAR PE PAGINA NOASTRA DE FACEBOOK…. name Sniper Ghost Warrior 2 Special Edition (2013) Repack by Freeleech. com or 941-206-1183, or the newsroom at 941-206. Add ignores to PTN. El tracker privado de Bittorrent, Tibimate, abre sus puertas a nuevos registros sin necesidad de pedir ninguna invitación. Η ΣΕΛΙΔΑ ΜΑΣ ΒΡΙΣΚΕΤΑΙ ΣΕ ΚΑΤΑΣΤΑΣΗ FREELEECH (Κάθε Παρασκευή, Σάββατο & Κυριακή εως 13/9/2020). Free leech means that what you download will not be counted. Tracker deny my torrent request on freeleech. This application is simple to use, includes a whole range of features and all of this for free. A torrent is a simple file that contains information needed to access and download larger, more complex files. titngoan New Member. How to Seed a Torrent. For PtP - well, sitewide FL is very very rare, but FL as a result of uploading competitions is very common and is enough on its own. For more information see Particle Model Help or AAPT Summer Meeting posters Video Modeling (2008) and Video Modeling with Tracker (2009). - Maybe the best HD tracker in the torrenting world - It's rare that you will find invites for HDB, these guys keep a very low profile - Browse audiobooks, documentaries, demos, movies, music, sports, TV and XXX. WINTERHASCOME invitation code! Except if you are living in Mars you should know that in less than 48h, GOTs final season is finally here! To celebrate this, we are opening invites JUST FOR 36 HOURS from now!. What comes is always here now. My tracker admin says he catches 100% of cheaters immediately. MP3 320 Kbps: MEGA FLAC Versión: Distrito FreeLeech 2017 - MEGA y MEDIAFIRE Descargas. Freeleech tends to generate good will amongst the members and will greatly increase activiy, and hopefully as members get more buffer, the activity is sustained. Most private sites will still enforce their hit and run rules on those torrents. Not ethical but cheating torrent ratio can become inevitable under many circumstances as discussed earlier, We had shared utilities like Ratio Master, Tracker-Pro and GreedyTorrent to get the torrent ratio cheating done with ease, Torrent Faker is yet another constantly updated handy utility to get the bittorrent ratio spoofing done without hassle, unlike other torrent ratio faking utilities. It's important to note that freeleech. Forum: Tracker News (3) Tracker Reviews (28) Blog Archive 2010 (64) April (12). Ce tracker fonctionne avec un système de dons (via Paypal et autres). A Hit and Run (HnR or H&R) is when a torrent is downloaded but not seeded for enough time as per the trackers rules. My tracker admin says he catches 100% of cheaters immediately. Free signup on one of the best 0day torrent trackers. Add server-password option to IRC header. wav" WAVE INDEX 01 00:00:00 TRACK 04 AUDIO TITLE "Too Long" INDEX 00 02:10:04 FILE "04 - Too Long. Η ΣΕΛΙΔΑ ΜΑΣ ΒΡΙΣΚΕΤΑΙ ΣΕ ΚΑΤΑΣΤΑΣΗ FREELEECH (Κάθε Παρασκευή, Σάββατο & Κυριακή εως 13/9/2020). Store Premium Membership Torrent Invites Store Buffered Accounts Store FTP Membership Windows Product Key Store Customer Support More. You can upload your own stuffs , but with care about their uploading rules / prohibited uploads / etc… Easy to seed because there are many leechers Needless to say this is a great tracker its the best when it comes to Mac stuff. If a user fails to meet one of those requirements then a Hit and Run is added to the users account. " Do I need to do this and if so, how? I restarted my client (ktorrent), but all of my torrents are still saying that there is a problem with the tracker. MMA-Tracker (MMAT) is a Private Torrent Tracker for MMA Sports. When a user downloads that torrent from you, you will get upload credit. Freeleech data is not counted towards the amount you need to download per week in order to stay as active on the tracker, you are not forced to download 1GB/week means , if you have downloaded 50GB you can stay active on the tracker for 50weeks or 4months, this condition also include visiting the tracker once in a month to save your account getting auto pruned. If you want freeleech status you would need to pay an additional 25USD/month or 40 USD for two months. Dar asta nu inseamna ca nu trebuie stat la seed, si in nici un caz sa nu confunzi cu "hit and run". trackerstatus. Freeleech strategy? : trackers. Screenshots. It is designed to be used in physics education. Typically a torrent must be seeded until a 1:1 ratio or a specific amount of time anywhere from 48 hours to 1 week in a 2-4 week period. The site is FREELEECH, this means ALL SECTIONS, ALL RELEASES and NO ratio requirements, the only thing you have to remember is to seed the files! SIGNUPS ARE OPEN FOR A LIMITED TIME ONLY. SFC is the oldest and credible source for the all your loving ,desiring trackers accounts ,offering you in a reasonable and affordable price,after getting your favorite trackers account ,do leave your feedback and suggestions for any tracker of your desire. La disparition de ce dernier a en effet laissé un véritable gouffre sur la scène warez francophone et plusieurs passionnés ont donc eu l'idée de monter un nouveau site et un nouveau tracker afin de prendre sa place. The anti-folks feel Freeleech basically encourages members to Hit & Run on torrents (esp since a ratio-based tracker doesn't usually have a Hit & Run rule). com It does depend tracker by tracker, but in general, I'd download big things and seed them long-term because a) they will give a lot of credit in the long run and b) people do the same for ratio during the freeleech. Add server-password option to IRC header. Chillingworth seem to "suck" the power out of Reverend Dimmesdale. Latest Torrents. See full list on physlets. So if it's freeleech for a decade, you can set minimumratio to 0. For every uploaded torrent that gets approved, you will receive 50 seedbonus points. A long time ago I decided to have an update every-so-often in which I suggested things to download. freeleech-percents¶ Type: Number list Example: freeleech-percents = 50,75 Description: Some trackers have multiple levels of. We do not have any file content, we are not a bittorrent site, we don't have any. Google Translation: Freeleech 24-hour freeleech from D****!! ----- 23 hours 45 minutes 54 seconds Freeleech. Not rated yet. Google Translation: Freeleech 24-hour freeleech from D****!! ----- 23 hours 45 minutes 54 seconds Freeleech. wav" WAVE INDEX 01 00:00:00 TRACK 04 AUDIO TITLE "Too Long" INDEX 00 02:10:04 FILE "04 - Too Long. Step 2: Click here and copy the Tracker URL. My tracker admin says he catches 100% of cheaters immediately. 🎅🎄 HDBits, Empornium, MoreThan. FL: Freeleech, when downloading a torrent doesn't count against your ratio but uploading counts for it. References. #1 Torrent Invite Forum on the Internet! Find free invites, free seedboxes, free bonuses, and you can even Buy/Sell your torrent invites or accounts. The platform was founded in 2008 and it is still a considerably popular platform, all around the world. Раздач: 1,118, Общий размер: 31,136 TB Пиров: 33,856, Сидов: 18,179, Личеров: 15,677 Скорость обмена: 0 B/s. Proprietary High Dynamic Range Video Conversion. efkkafka ¡ Grab-fgdrkaÜ tll Metadata *hs,a vjqkaf,daâ Wkdu fgdrkaÜ tl ,nd. I used your images only again. A Hit and Run (HnR or H&R) is when a torrent is downloaded but not seeded for enough time as per the trackers rules. To be fair, it's more challenging and difficult than it sounds! Its not as simple as press a button to make everything Freeleech. Hors ligne #20 08/06/2013 10:51:49. Maintaining ratio or create buffer. Hit & Run All normal torrents must be seeded to a minimum 48 hours & freeleech for 7 days or 1:1 ratio TD has a great contents and pretty good pretimes, has lots of freeleech with nice bonus system. Typically a torrent must be seeded until a 1:1 ratio or a specific amount of time anywhere from 48 hours to 1 week in a 2-4 week period. When in FreeLeech mode, your torrent client will continue to work as normal, but Ratio Ghost will report to the tracker that you haven't downloaded anything. One of my friends wants access to a movie site, what's a good beginner tracker that I could easily get him into (Possibly ratioless)? I don't want to have a ban on my invite tree if he can't figure out to upload or seed freeleech for credit. If the torrent comes from a private tracker (only !!!) it will add to the list of shared files et will regulary (30 minutes on average) will report to the tracker some upload stat and update the current status of your torrent : uploaded, total seeders and leechers. Posted by TrackerSociety at 2:43 PM Labels: Tracker Reviews Digital Hive is a veteran among torrent trackers and will celebrate it's 4th birthday in may this year. L'Actualité techniques des deux sites t411. Joined: Dec 25, 2018 Messages: 1. " Do I need to do this and if so, how? I restarted my client (ktorrent), but all of my torrents are still saying that there is a problem with the tracker. La disparition de ce dernier a en effet laissé un véritable gouffre sur la scène warez francophone et plusieurs passionnés ont donc eu l'idée de monter un nouveau site et un nouveau tracker afin de prendre sa place. A torrent is a simple file that contains information needed to access and download larger, more complex files. En estas fiestas, el Staff de PuntoTorrent ha decidido poner todos los torrents con GOLDEN (sólo cuenta la subida, no la bajada), por tanto tendremos una muy buena oportunidad de aumentar nuestro ratio. Also users can gift you up to 1000 seedbonus points if they like your torrent. Freeleech can be applied to individual torrents at a trackers own discretion, sometimes for really big torrents, internal encodes, torrents that are underseeded, and sometimes there are freeleech. Changed¶ Change Blackcats to use passkey. As many trackers, upload just for power users and above. TRACK 03 AUDIO TITLE "She Belongs To Me" INDEX 00 02:49:04 FILE "03 - She Belongs To Me. - Maybe the best HD tracker in the torrenting world - It's rare that you will find invites for HDB, these guys keep a very low profile - Browse audiobooks, documentaries, demos, movies, music, sports, TV and XXX. The post will be published to twitter automaticly :. A lot of tracker admins say that they catch all cheaters, or that they catch some large portion of them - maybe 90%. Durée du Freeleech : Jusqu'au 28 mai ~16h. Add bnc option to server header. Within two days, over 2700 users had made their invitations and are registered with us!. For every uploaded torrent that gets approved, you will receive 50 seedbonus points. wav" WAVE INDEX 01 00:00:00 TRACK 04 AUDIO TITLE "Too Long" INDEX 00 02:10:04 FILE "04 - Too Long. On the site, there are mainly music types such as FLAC but there are also some Blu-ray and DVD selections available for types of videos like concerts. Tracker Index Our Picks Leaderboard Donations Awards Online Users More. It's important to note that freeleech. Hit & Run All normal torrents must be seeded to a minimum 48 hours & freeleech for 7 days or 1:1 ratio TD has a great contents and pretty good pretimes, has lots of freeleech with nice bonus system. If you are one of those people who occasionally sign in to keep their accounts active, stop right now. Sharing files with bittorrent networking is a popular choice for peer to peer (P2P) sharing. Latest Torrents. Search in titles only Search in Tracker Freeleeches only. la publication de ses 2 vidéos en page d'accueil, ainsi qu'une mise en avant de sa chaîne Youtube, et le privilège de bénéficier de 45 jours de Freeleech. References. Freeleech can be applied to individual torrents at a trackers own discretion, sometimes for really big torrents, internal encodes, torrents that are underseeded, and sometimes there are freeleech periods in which for a certain time frame all torrents downloaded wont count towards your download amount. Under windows they are. Free leech means that what you download will not be counted. Page 1 of 13 - The new idol tracker is going public - posted in Discussion Lounge: Dear friends and idol lovers, as promised a few weeks back we have been working on a new tracker especially dedicated to Japanese idols. The correct ip is xxxx. TRACK 03 AUDIO TITLE "She Belongs To Me" INDEX 00 02:49:04 FILE "03 - She Belongs To Me. Change authkey to passkey in FunFile. The minimum ratio you are allowed to have is 1. network Orpheus Site/Tracker/IRC Status ops. info Use the Search Option to. With Ratio Ghost, every torrent can be FreeLeech. Add bnc option to server header. Google Translation: Freeleech 24-hour freeleech from D****!! ----- 23 hours 45 minutes 54 seconds Freeleech. very bad site indeed. Η ΣΕΛΙΔΑ ΜΑΣ ΒΡΙΣΚΕΤΑΙ ΣΕ ΚΑΤΑΣΤΑΣΗ FREELEECH (Κάθε Παρασκευή, Σάββατο & Κυριακή εως 13/9/2020). network/ Official IRC Support Channel #help @ orpheus. I miss my brother. Tracker Index Our Picks Leaderboard Donations Awards Online Users More. The community is very active and helpful. Remember* All torrents 5 Gigs or more are always FreeLeech even when this event ends. Not ethical but cheating torrent ratio can become inevitable under many circumstances as discussed earlier, We had shared utilities like Ratio Master, Tracker-Pro and GreedyTorrent to get the torrent ratio cheating done with ease, Torrent Faker is yet another constantly updated handy utility to get the bittorrent ratio spoofing done without hassle, unlike other torrent ratio faking utilities. This application is simple to use, includes a whole range of features and all of this for free. My tracker admin says he catches 100% of cheaters immediately. Removed¶ Remove HDBits tracker; Fixed¶ Force SSL for Awesome-HD. The site is FREELEECH, this means ALL SECTIONS, ALL RELEASES and NO ratio requirements, the only thing you have to remember is to seed the files! SIGNUPS ARE OPEN FOR A LIMITED TIME ONLY. Changed¶ Change Blackcats to use passkey. The nature, incidence and targets of freeleech are entirely decided by the staff but usually occur for special occasions (Christmas, tracker anniversary, etc. You get: 20gb upload bonus on signup more than 600 torrents/day. Sharing files with bittorrent networking is a popular choice for peer to peer (P2P) sharing. Step 2: Click here and copy the Tracker URL. Time tracking software to help track time and easily manage timesheets and invoices. The platform was founded in 2008 and it is still a considerably popular platform, all around the world. The post will be published to twitter automaticly :. - Bonus points system is implemented , where you can buy extra GBs to your upload count. La disparition de ce dernier a en effet laissé un véritable gouffre sur la scène warez francophone et plusieurs passionnés ont donc eu l’idée de monter un nouveau site et un nouveau tracker afin de prendre sa place. Aucune publicité. /ptg/ - Private Tracker General - "/g/ - Technology" is 4chan's imageboard for discussing computer hardware and software, programming, and general technology. wav" WAVE INDEX 01 00:00:00 TRACK 04 AUDIO TITLE "Too Long" INDEX 00 02:10:04 FILE "04 - Too Long. When in FreeLeech mode, your torrent client will continue to work as normal, but Ratio Ghost will report to the tracker that you haven't downloaded anything. Ce site propose un système de freeleech original qui se déclenche à partir d'un certain nombre de points alimentés par les membres eux-mêmes (points-bonus). Username: Password: Cookies MUST be enabled for you to login. This application is simple to use, includes a whole range of features and all of this for free. I used your images only again. Add bnc option to server header. It is a way to build up your ratio at the site. Can be global, personal or specific to some torrents. The minimum ratio you are allowed to have is 1. Activity All Activity Search More. Also, leech is a carnivorous or bloodsucking aquatic worm. Free signup on one of the best 0day torrent trackers. Durée du Freeleech : Jusqu'au 19 mai (il reste 19hr) "C'est parce que la vitesse de la lumière est supérieure à celle du son, que certains ont l'air brillant avant d'avoir l'air con" Молодцы, вы знаете, как использовать Google перевод. 6 / This is the tale of Harry Potter (Daniel Radcliffe), an ordinary eleven-year-old boy serving as a sort of slave for his aunt and uncle who learns that he is actually a wizard and has been invited to attend the Hogwarts School for Witchcraft and Wizardry. - Maybe the best HD tracker in the torrenting world - It's rare that you will find invites for HDB, these guys keep a very low profile - Browse audiobooks, documentaries, demos, movies, music, sports, TV and XXX. A long time ago I decided to have an update every-so-often in which I suggested things to download. Also, leech is a carnivorous or bloodsucking aquatic worm. Con la tecnología de Blogger. The anti-folks feel Freeleech basically encourages members to Hit & Run on torrents (esp since a ratio-based tracker doesn't usually have a Hit & Run rule). 0 is a bit drastic, but you get the. leechers-paradise. " Do I need to do this and if so, how? I restarted my client (ktorrent), but all of my torrents are still saying that there is a problem with the tracker. FreeLeech by Un Crevard. Warning: Any active torrent's tracker key must be updated with the new one to continue leeching/seeding. Also users can gift you up to 1000 seedbonus points if they like your torrent. This is bullshit. org:6969/announce. Yes, but you may not seed the same torrent from two different computers/IPs as the tracker will not understand how you can be in two places at once, and doing so may cause problems. These public trackers don't have the freeleech tag: Torlock Torrent Downloads Corsaro. Freeleech is something applied to a torrent that makes download stats not be recorded (or at least counted on your download amount) at all, so the torrent is free to leech hence the term freeleech. Nathalia Santoro is a Brazilian fitness model, bodybuilder, BJJ competitor, and the girlfriend of well known Nogi grappling sensation Gordon Ryan. The community is very active and helpful. FreeLeech e un termen care se foloseste pe trackere. Typically a torrent must be seeded until a 1:1 ratio or a specific amount of time anywhere from 48 hours to 1 week in a 2-4 week period. The nature, incidence and targets of freeleech are entirely decided by the staff but usually occur for special occasions (Christmas, tracker anniversary, etc. Ezt külön Nektek írom ki ide először, blogolvasók előnyben lehessenek:) Bejegyezte:. The tracker is not directly involved in the data transfer and does not have a copy of the file. Orpheus (APOLLO) is a Private Torrent Tracker for MUSIC Applications are open! Applications are open! Apply now and join the community! READ THE INTERVIEW PREP VERY CAREFULLY BEFORE ATTEMPTING THE INTERVIEW PROCESS Signup Link: https://interview. I miss my brother. Removed¶ Remove HDBits tracker; Fixed¶ Force SSL for Awesome-HD. How to Download and Open Torrent Files. Freeleech Tracker. -----Ratio Help. Things you should know: We don't keep logs. Início Fóruns Área dos Filmes Escolhe o que filme que queres ver em Freeleech. Register New Account | Recover Account | Recover Account. 21:50 -kor. To hold rating is easy, as a lot of hands marked as freeleech. Set to false if you only want non-freeleech releases. freeleech small pack 5 torrent download location Download Direct freeleech small pack 5 could be available for direct download Spónsored Link google. En estas fiestas, el Staff de PuntoTorrent ha decidido poner todos los torrents con GOLDEN (sólo cuenta la subida, no la bajada), por tanto tendremos una muy buena oportunidad de aumentar nuestro ratio. org torrent was created on 20. its a huge ISO because theres akot of hacking/penetration tools included in windows 10. Harry Potter en de steen der wijzen (2001) 152 min Adventure / Family / Fantasy Release: 22 Nov 2001 (Netherlands) Rating: 7. Tracker Index Our Picks Leaderboard Donations Awards Online Users More. For PtP - well, sitewide FL is very very rare, but FL as a result of uploading competitions is very common and is enough on its own. very bad site indeed. If they could really catch everyone, they wouldn't need the bravado. One of my friends wants access to a movie site, what's a good beginner tracker that I could easily get him into (Possibly ratioless)? I don't want to have a ban on my invite tree if he can't figure out to upload or seed freeleech for credit. Around 16000 torrents, lot's of freeleech and good speeds. freeleech-percents¶ Type: Number list Example: freeleech-percents = 50,75 Description: Some trackers have multiple levels of. Ekkor: 2020. LosslessClub is a Ukrainian Music tracker platform for torrents. The design of the site is good, speeds are good thanks to gigabit boxes, torrents are alive for a long time & the forum & Irc are active. Tracker deny my torrent request on freeleech. If you are one of those people who occasionally sign in to keep their accounts active, stop right now. If a user fails to meet one of those requirements then a Hit and Run is added to the users account. Open Trackers; Torrent Invites; Torrent Freak; Tracker Statuses; Tracker Platforms; Hey There! Like what you see? Feel free to contribute HERE! Name Abbr Type Codebase Moz Grade Users Torrents Peers Ratio Ratio Diff Freeleech Points H&R B-Day Join Join Diff Updated; Trackers from Jackett that have not yet. com 133200 16300 2020-02-27 Nincs!. Add ignore to GazelleGames. Dar asta nu inseamna ca nu trebuie stat la seed, si in nici un caz sa nu confunzi cu "hit and run". What comes is always here now. Updated With private trackers trying to crack down on cheaters more than ever, Ratio Ghost is still actively updated with new features and detection avoidance schemes. Ekkor: 2020. Tracker généraliste FR avec un ratio assez facile à tenir et quelques périodes de freeleech (en ce moment freeleech de 24h). An international team of scientists has discovered a new species of North American medicinal leech, and it turns out the creatures have been hiding in plain sight for decades. Maintaining ratio is easy due to the many freeleech torrents and many leecheers. Time tracking software to help track time and easily manage timesheets and invoices. You can upload your own stuffs , but with care about their uploading rules / prohibited uploads / etc… Easy to seed because there are many leechers Needless to say this is a great tracker its the best when it comes to Mac stuff. i dont have that problem stopping at 86%. A Hit and Run (HnR or H&R) is when a torrent is downloaded but not seeded for enough time as per the trackers rules. " Do I need to do this and if so, how? I restarted my client (ktorrent), but all of my torrents are still saying that there is a problem with the tracker. i dont know if i did something wrong or. Joined: Dec 25, 2018 Messages: 1. Nom du tracker : GKS. Also, leech is a carnivorous or bloodsucking aquatic worm. This trackers you must have for feeding your general stuff. The minimum ratio you are allowed to have is 1. Freeleech Don't Look Her In the Eye, released 18 July 2013 1. The community is very active and helpful. This application is simple to use, includes a whole range of features and all of this for free. xParasiite Membre Inscription : 23/12/2012 Messages : 628. very bad site indeed. Qu'est-ce qu'il advient de mes vidéos si elles n'ont pas été choisies ? Toutes les propositions seront centralisées dans un topic épinglé de la section Tutoriels du forum. Not rated yet. The anti-folks feel Freeleech basically encourages members to Hit & Run on torrents (esp since a ratio-based tracker doesn't usually have a Hit & Run rule). “And the future never comes. 0 is a bit drastic, but you get the. 2020 Fully Compliant HDR Transfers. Due to some regretful circumstances we have not been able to integrate the old database after all. Change authkey to passkey in FunFile. Freeleech can be applied to individual torrents at a trackers own discretion, sometimes for really big torrents, internal encodes, torrents that are underseeded, and sometimes there are freeleech periods in which for a certain time frame all torrents downloaded wont count towards your download amount. Activity All Activity Search More. If you are one of those people who occasionally sign in to keep their accounts active, stop right now. Pünkösd alkalmából az oldalon lesznek meglepetések, nem csak freeleech, de feltöltési akció is tervben van. Can be global, personal or specific to some torrents. Hello dear users I would like to a nine tracker imagine TSC Torrent-Scene. Some trackers offer Freeleech during special events like tracker Birthdays, or during Holidays, or sometimes when a donation goal as met. Also users can gift you up to 1000 seedbonus points if they like your torrent. com or 941-206-1183, or the newsroom at 941-206. It is designed to be used in physics education. i dont have that problem stopping at 86%. New Porn Torrent Site Open Signups Freeleech Desire Lounge Today's torrent site related post is about a new opening torrent site. To be fair, it's more challenging and difficult than it sounds! Its not as simple as press a button to make everything Freeleech. A long time ago I decided to have an update every-so-often in which I suggested things to download. “And the future never comes. Once removed from freeleech they begin to credit your account and ruin your ratio - yeah I learnt the hard way - If you are going away for a holiday, work etc it is best you park your account. For PtP - well, sitewide FL is very very rare, but FL as a result of uploading competitions is very common and is enough on its own. - Maybe the best HD tracker in the torrenting world - It's rare that you will find invites for HDB, these guys keep a very low profile - Browse audiobooks, documentaries, demos, movies, music, sports, TV and XXX. En este tracker podéis encontrar cualquier tipo de material, películas, música, juegos, programas etc. xParasiite Membre Inscription : 23/12/2012 Messages : 628. Hors ligne #7 25/12/2015 01:10:07. Reply Anonymous Oct 21,2016 11:49 pm Just because you dont know how to use it doesnt mean its bad. Activity All Activity Search More. If you are an user of a private tracker. These public trackers don't have the freeleech tag: Torlock Torrent Downloads Corsaro. Freeleech torrentleech. Freeleech still helps new users to get out the gate easier, and it can be very helpful for those who have a slower connection and don't want to invest or can't afford a monthly seedbox bill. com 133200 16300 2020-02-27 Nincs!. cd Freeleech ( What. Durée du Freeleech : Jusqu'au 19 mai (il reste 19hr) "C'est parce que la vitesse de la lumière est supérieure à celle du son, que certains ont l'air brillant avant d'avoir l'air con" Молодцы, вы знаете, как использовать Google перевод. Discussion in 'Help' started by titngoan, Apr 1, 2019. 🎅🎄 HDBits, Empornium, MoreThan. Extension Metadata. Latest Torrents. Freeleech Meghívózás; nCore 640734 478669 Megy! Metal-Tracker. Native HEVC 10-bit Rec. SFC is the oldest and credible source for the all your loving ,desiring trackers accounts ,offering you in a reasonable and affordable price,after getting your favorite trackers account ,do leave your feedback and suggestions for any tracker of your desire. Ce tracker fonctionne avec un système de dons (via Paypal et autres). It is a way to build up your ratio at the site. Freeleech Don't Look Her In the Eye, released 18 July 2013 1. A long time ago I decided to have an update every-so-often in which I suggested things to download. Changed¶ Change Blackcats to use passkey. org:6969/announce. The nature, incidence and targets of freeleech are entirely decided by the staff but usually occur for special occasions (Christmas, tracker anniversary, etc. For PtP - well, sitewide FL is very very rare, but FL as a result of uploading competitions is very common and is enough on its own. Services Amazon / Apple Refund Service. Hello dear users I would like to a nine tracker imagine TSC Torrent-Scene. wav" WAVE INDEX 01 00:00:00 TRACK 04 AUDIO TITLE "Too Long" INDEX 00 02:10:04 FILE "04 - Too Long. Ce site propose un système de freeleech original qui se déclenche à partir d'un certain nombre de points alimentés par les membres eux-mêmes (points-bonus). Freeleech and Neutral Leech When creating torrents to upload to a private tracker, there is a box to “mark torrent as private”. 3 will result in account disabling. Καλωσήρθατε στον μοναδικό tracker με ΟΛΑ τα torrent (60. Open tracker:""Blu-bits""opentrackerz. So snatch all the torrents you can in order to maximize your bonus point earnings now while they won’t hurt your ratio! The bonus points store is nearing completion with some nice things that you will be able to purchase. org torrent was created on 20. https://sceneaccess. When in FreeLeech mode, your torrent client will continue to work as normal, but Ratio Ghost will report to the tracker that you haven't downloaded anything. A torrent is a simple file that contains information needed to access and download larger, more complex files. 21:50 -kor. Most trackers still enforce seed time rules on freeleech torrents So, if users don't seed it back. Once removed from freeleech they begin to credit your account and ruin your ratio - yeah I learnt the hard way - If you are going away for a holiday, work etc it is best you park your account. Yup, you read correct! If we look back for the past 15 years, we think the MOST ever requested feature on site was Freeleech. For more information see Particle Model Help or AAPT Summer Meeting posters Video Modeling (2008) and Video Modeling with Tracker (2009). use rufus and burn it with GPT. Be careful of what you download or face the consequences. Reply Anonymous Oct 21,2016 11:49 pm Just because you dont know how to use it doesnt mean its bad. Most trackers still enforce seed time rules on freeleech torrents So, if users don't seed it back. Freeleech Don't Look Her In the Eye, released 18 July 2013 1. info Use the Search Option to. If you are an user of a private tracker. The minimum ratio you are allowed to have is 1. One of the largest in the network Hungarian tracker of general direction, which contains an extensive torrents database of various categories. Can be global, personal or specific to some torrents. Page 1 of 13 - The new idol tracker is going public - posted in Discussion Lounge: Dear friends and idol lovers, as promised a few weeks back we have been working on a new tracker especially dedicated to Japanese idols. In fact, since 2006, bittorrent networking has been the most popular choice for file sharing in terms of total bandwidth. It's important to note that freeleech. En estas fiestas, el Staff de PuntoTorrent ha decidido poner todos los torrents con GOLDEN (sólo cuenta la subida, no la bajada), por tanto tendremos una muy buena oportunidad de aumentar nuestro ratio. Removed¶ Remove HDBits tracker; Fixed¶ Force SSL for Awesome-HD. use rufus and burn it with GPT. Ezt külön Nektek írom ki ide először, blogolvasók előnyben lehessenek:) Bejegyezte:. Раздач: 1,118, Общий размер: 31,136 TB Пиров: 33,856, Сидов: 18,179, Личеров: 15,677 Скорость обмена: 0 B/s. Advanced search gives you the option to browse for different codecs, languages, upload origin and even IMDB ratings. info Use the Search Option to. Freeleech Tracker. I miss my brother. leechers-paradise. Freeleech torrentleech. See full list on physlets. After a sneak peak and trial run last month, the what. Unfortunately, this tracker is not among the one in which you easily survive, and this is the largest and the only problem of many new members. La disparition de ce dernier a en effet laissé un véritable gouffre sur la scène warez francophone et plusieurs passionnés ont donc eu l'idée de monter un nouveau site et un nouveau tracker afin de prendre sa place. 14 Users No Reviews. It's important to note that freeleech. 🥊 Ryan with a fan. Things you should know: We don't keep logs. Most private sites will still enforce their hit and run rules on those torrents. - Maybe the best HD tracker in the torrenting world - It's rare that you will find invites for HDB, these guys keep a very low profile - Browse audiobooks, documentaries, demos, movies, music, sports, TV and XXX. cd Freeleech ( What. For PtP - well, sitewide FL is very very rare, but FL as a result of uploading. So if it's freeleech for a decade, you can set minimumratio to 0. Removed¶ Remove HDBits tracker; Fixed¶ Force SSL for Awesome-HD. i dont know if i did something wrong or. There are no ratings yet. For every uploaded torrent that gets approved, you will receive 50 seedbonus points. Pünkösd alkalmából az oldalon lesznek meglepetések, nem csak freeleech, de feltöltési akció is tervben van. com It does depend tracker by tracker, but in general, I'd download big things and seed them long-term because a) they will give a lot of credit in the long run and b) people do the same for ratio during the freeleech. Can be global, personal or specific to some torrents. Neutral leech means none of the data uploaded or downloaded is counted, while freeleech means only your uploaded data is recorded in your ratio. Add bnc option to server header. If the torrent comes from a private tracker (only !!!) it will add to the list of shared files et will regulary (30 minutes on average) will report to the tracker some upload stat and update the current status of your torrent : uploaded, total seeders and leechers. very bad site indeed. Page 1 of 13 - The new idol tracker is going public - posted in Discussion Lounge: Dear friends and idol lovers, as promised a few weeks back we have been working on a new tracker especially dedicated to Japanese idols. Private Tracker List. These values should be set to the long term requirements for the torrent. How to Download and Open Torrent Files. Most private sites will still enforce their hit and run rules on those torrents. Signing up for an account is. Tracker généraliste FR avec un ratio assez facile à tenir et quelques périodes de freeleech (en ce moment freeleech de 24h). If they could really catch everyone, they wouldn't need the bravado. freeleech small pack 5 torrent download location Download Direct freeleech small pack 5 could be available for direct download Spónsored Link google. Partial Downloading — Now that you have a group of torrents neatly organized and waiting for your tracker’s freeleech, you can control other torrent options, such as setting up "partial seeding" for torrents that haven’t been downloaded yet. 21:50 -kor. This application is simple to use, includes a whole range of features and all of this for free. If you are an user of a private tracker. com 133200 16300 2020-02-27 Nincs!. Chillingworth seem to "suck" the power out of Reverend Dimmesdale. Lista trackere romanesti Free Cu Invitatii : RECOMANDARI : Cele mai tari site-uri de torrente Topul anului 2012 – 2013 CEI CARE DORESC INVITATII POT OBTINE DOAR PE PAGINA NOASTRA DE FACEBOOK…. It does depend tracker by tracker, but in general, I'd download big things and seed them long-term because a) they will give a lot of credit in the long run and b) people do the same for ratio during the freeleech. 2009! The official opening is / was on 25. Nous nous excusons pour le désagrément occasionné (nous avons été pris de court) et nous vous souhaitons une très bonne navigation sur YGG!. the only problem is when the OS is starting for the first, when the screen says "gettting ready", it took almost an hour for it to actually log into the OS. En estas fiestas, el Staff de PuntoTorrent ha decidido poner todos los torrents con GOLDEN (sólo cuenta la subida, no la bajada), por tanto tendremos una muy buena oportunidad de aumentar nuestro ratio. Free leech means that what you download will not be counted. Under windows they are. A long time ago I decided to have an update every-so-often in which I suggested things to download. Open tracker:""Blu-bits""opentrackerz. Add server-password option to IRC header. Post any freeleech related tracker news here!. Forum: Tracker News (3) Tracker Reviews (28) Blog Archive 2010 (64) April (12). Can be global, personal or specific to some torrents. SFC is the oldest and credible source for the all your loving ,desiring trackers accounts ,offering you in a reasonable and affordable price,after getting your favorite trackers account ,do leave your feedback and suggestions for any tracker of your desire. As many trackers, upload just for power users and above. Tunnan & Moroten · Song · 2011. Listen to Freeleech på Pirategay on Spotify. Traductions [modifier le wikicode]. Proprietary High Dynamic Range Video Conversion. Yup, you read correct! If we look back for the past 15 years, we think the MOST ever requested feature on site was Freeleech. info Use the Search Option to.